Hora corrente: 20-08-2019, 03:43 AM
Avaliação do Tópico:
  • 7 voto(s) - 2.86 Média
  • 1
  • 2
  • 3
  • 4
  • 5
Administrador[CAM] Men.In.Black.International.2019.NEW.AUDIO.FINAL.RELEASE-SomeCoont
M/12 | 1h 54min | Action, Adventure, Comedy | 13 June 2019 (Portugal)
#1
Multi 

IMDB Movie Details
Type: Movie
Year: 2019
Rated: PG-13
Runtime: 114 min
Writer: Matt Holloway, Art Marcum,
IMDb Rating: 5.6
IMDb Votes: 39,125
Genre: Action, Adventure, Comedy, Action, Adventure, Comedy, Sci-Fi,
Tagline: The Universe is Expanding
Plot: The Men in Black have always protected the Earth from the scum of the universe. In this new adventure, they tackle their biggest threat to date: a mole in the Men in Black organization.
Awards: 4 nominations. ,
Cast: Chris Hemsworth, Tessa Thompson, Kumail Nanjiani, Rebecca Ferguson, Rafe Spall, Emma Thompson, Liam Neeson, Laurent Bourgeois, Larry Bourgeois, Kayvan Novak, Spencer Wilding, Marcy Harriell, Inny Clemons, Aaron Serotsky, Mandeiya Flory,
Language: English, French,
Country: USA,


IMDB Page: http://www.imdb.com/title/tt2283336



Men.In.Black.International.2019.NEW.AUDIO.FINAL.RELEASE-SomeCoont


resim


Info
Format : AVI
Format/Info : Audio Video Interleave
File size : 1.49 GiB
Duration : 1 h 44 min
Overall bit rate mode : Variable
Overall bit rate : 2 047 kb/s
Writing library : VirtualDub2 build 41867/release

Video
ID : 0
Format : MPEG-4 Visual
Format profile : Advanced [email protected]
Format settings, BVOP : 2
Format settings, QPel : No
Format settings, GMC : No warppoints
Format settings, Matrix : Default (H.263)
Muxing mode : Packed bitstream
Codec ID : XVID
Codec ID/Hint : XviD
Duration : 1 h 44 min
Bit rate : 1 797 kb/s
Width : 720 pixels
Height : 292 pixels
Display aspect ratio : 2.466
Frame rate : 24.000 FPS
Color space : YUV
Chroma subsampling : 4:2:0
Bit depth : 8 bits
Scan type : Progressive
Compression mode : Lossy
Bits/(Pixel*Frame) : 0.356
Stream size : 1.31 GiB (88%)
Writing library : XviD 64

Audio
ID : 1
Format : MPEG Audio
Format version : Version 1
Format profile : Layer 3
Codec ID : 55
Codec ID/Hint : MP3
Duration : 1 h 44 min
Bit rate mode : Variable
Bit rate : 237 kb/s
Channel(s) : 2 channels
Sampling rate : 48.0 kHz
Compression mode : Lossy
Stream size : 177 MiB (12%)
Alignment : Aligned on interleaves
Interleave, duration : 24 ms (0.58 video frame)



Sinopse
Quando criança, Molly (Tessa Thompson) presenciou a abordagem de dois agentes do MIB aos seus pais, apagando a memória deles acerca da súbita aparição de um ser extraterrestre. Como estava escondida, a garota não foi atingida pela ação. Obcecada pelos mistérios do universo, ela cresceu com o sonho de ingressar no MIB. Após muita pesquisa, ela consegue descobrir a sede da agência e lá se candidata a uma vaga, sendo aceita por O (Emma Thompson). Ainda em experiência, e agora renomeada como agente M, ela é enviada a Londres para investigar algo estranho que tem ocorrido na agência local. É quando conhece o agente H (Chris Hemsworth), de grande renome pelos seus feitos no passado mas uma certa arrogância e displicência na execução do trabalho.


Screenshots
resim
resim
resim
resim
resim


Trailer



Download

Mega
Regista-te ou Efetua Login para veres os links.

1fichier
Regista-te ou Efetua Login para veres os links.

Uptobox
Regista-te ou Efetua Login para veres os links.

resim
Regista-te ou Efetua Login para veres os links.

Ag
resim
Responder
Thanks given by: sousa.49


Saltar Fórum:


Utilizadores a ver este tópico: 1 Visitante(s)

GoldTeam Forúm

GoldTeam © 2016-2019
Termos e Condições | DMCA